gymmultimedia.myfastforum.org Forum Index  
 FAQ  •  Search  •  Memberlist  •  Usergroups   •  Join! (free)  •  Profile  •  Log in to check your private messages  •  Log in
 a brief tutorial on getting e$pn streams View next topic
View previous topic
Post new topicReply to topic
Author Message
Please Register and Login to this forum to stop seeing this advertising.






Posted: Back to top

boguinskaia
Just my two cents
Just my two cents


Joined: 08 Mar 2015
Posts: 48


Location: England

PostPosted: Tue Jan 10, 2017 8:26 pm  Reply with quoteBack to top

Thanks for this - Adela Dazeem here. I'm currently travelling abroad in Tokyo with only a tiny notebook laptop and won't be able to capture anything myself until I'm back Sad I'm grateful for everyone's efforts to keep me in the loop this season!
View user's profileSend private message
CGA
My collection is bigger than yours
My collection is bigger than yours


Joined: 10 Dec 2015
Posts: 112



PostPosted: Wed Jan 11, 2017 8:15 pm Reply with quoteBack to top

Final tutorial (everything else is pretty self-explanatory, IDM just eats up every other site's stuff no problem) - BTN as of last season was just working straight up with youtube-dl, as I recall. I don't remember if there was a little trick to it or not, as far as the URL - ie, don't remember if you could just paste the browser URL and youtube-dl would find the source from it, or if you had to give them a source URL. But i'll revisit when/if they start posting free vids again this year. Also, haven't checked in a bit, but in a positive development, all of last year's BTN vids remained on the site even after this school year began. Would be a welcome change, their habit of just deleting everything every year is a crime.
View user's profileSend private message
JoeBob
My collection is bigger than yours
My collection is bigger than yours


Joined: 13 Feb 2016
Posts: 120



PostPosted: Thu Jan 12, 2017 8:06 am Reply with quoteBack to top

JoeBob wrote:

I think it is but I'll let you make that decision.  Once it's uploaded I'll send a link but looks like it'll be tomorrow.


Here ya go.  I did run this trough handbrake and no longer have original.  Do this with everything I capture.   https://mega.nz/#!UsAz2B4J!dacD3JvG_rNpulcucwFPIwugUPFoPHRYhIJXoBGtx9U

Code:

General
Format                         : MPEG-4
Format profile                 : Base Media / Version 2
Codec ID                       : mp42 (isom/iso2/avc1/mp41)
File size                      : 4.15 GiB
Duration                       : 1 h 26 min
Overall bit rate mode          : Variable
Overall bit rate               : 6 841 kb/s
Encoded date                   : UTC 2017-01-07 20:59:43
Tagged date                    : UTC 2017-01-07 20:59:43
Writing application            : HandBrake 1.0.0 2016122400

Video
ID                             : 1
Format                         : AVC
Format/Info                    : Advanced Video Codec
Format profile                 : High@L3.2
Format settings, CABAC         : Yes
Format settings, ReFrames      : 5 frames
Codec ID                       : avc1
Codec ID/Info                  : Advanced Video Coding
Duration                       : 1 h 26 min
Bit rate                       : 6 759 kb/s
Width                          : 1 280 pixels
Height                         : 704 pixels
Display aspect ratio           : 16:9
Frame rate mode                : Variable
Frame rate                     : 59.940 (60000/1001) FPS
Minimum frame rate             : 59.920 FPS
Maximum frame rate             : 59.960 FPS
Color space                    : YUV
Chroma subsampling             : 4:2:0
Bit depth                      : 8 bits
Scan type                      : Progressive
Bits/(Pixel*Frame)             : 0.125
Stream size                    : 4.10 GiB (99%)
Writing library                : x264 core 148 r2708 86b7198
Encoding settings              : cabac=1 / ref=5 / deblock=1:0:0 / analyse=0x3:0x113 / me=umh / subme=8 / psy=1 / psy_rd=1.00:0.00 / mixed_ref=1 / me_range=16 / chroma_me=1 / trellis=1 / 8x8dct=1 / cqm=0 / deadzone=21,11 / fast_pskip=1 / chroma_qp_offset=-2 / threads=12 / lookahead_threads=2 / sliced_threads=0 / nr=0 / decimate=1 / interlaced=0 / bluray_compat=0 / constrained_intra=0 / bframes=3 / b_pyramid=2 / b_adapt=2 / b_bias=0 / direct=3 / weightb=1 / open_gop=0 / weightp=2 / keyint=600 / keyint_min=60 / scenecut=40 / intra_refresh=0 / rc_lookahead=50 / rc=crf / mbtree=1 / crf=20.0 / qcomp=0.60 / qpmin=0 / qpmax=69 / qpstep=4 / ip_ratio=1.40 / aq=1:1.00
Encoded date                   : UTC 2017-01-07 20:59:43
Tagged date                    : UTC 2017-01-07 20:59:43
Color range                    : Limited
Color primaries                : BT.709
Transfer characteristics       : BT.709
Matrix coefficients            : BT.709

Audio
ID                             : 2
Format                         : AAC
Format/Info                    : Advanced Audio Codec
Format profile                 : LC
Codec ID                       : 40
Duration                       : 1 h 26 min
Bit rate mode                  : Variable
Bit rate                       : 64.2 kb/s
Channel(s)                     : 2 channels
Channel(s)_Original            : 1 channel
Channel positions              : Front: C
Sampling rate                  : 48.0 kHz
Frame rate                     : 46.875 FPS (1024 spf)
Compression mode               : Lossy
Stream size                    : 39.9 MiB (1%)
Title                          : Mono / Mono
Default                        : Yes
Alternate group                : 1
Encoded date                   : UTC 2017-01-07 20:59:43
Tagged date                    : UTC 2017-01-07 20:59:43
View user's profileSend private message
NastiaFan101
My collection is bigger than yours
My collection is bigger than yours


Joined: 19 May 2007
Posts: 922



PostPosted: Thu Jan 12, 2017 6:26 pm Reply with quoteBack to top

JoeBob wrote:
JoeBob wrote:

I think it is but I'll let you make that decision.  Once it's uploaded I'll send a link but looks like it'll be tomorrow.


Here ya go.  I did run this trough handbrake and no longer have original.  Do this with everything I capture.   https://mega.nz/#!UsAz2B4J!dacD3JvG_rNpulcucwFPIwugUPFoPHRYhIJXoBGtx9U

Code:

General
Format                         : MPEG-4
Format profile                 : Base Media / Version 2
Codec ID                       : mp42 (isom/iso2/avc1/mp41)
File size                      : 4.15 GiB
Duration                       : 1 h 26 min
Overall bit rate mode          : Variable
Overall bit rate               : 6 841 kb/s
Encoded date                   : UTC 2017-01-07 20:59:43
Tagged date                    : UTC 2017-01-07 20:59:43
Writing application            : HandBrake 1.0.0 2016122400

Video
ID                             : 1
Format                         : AVC
Format/Info                    : Advanced Video Codec
Format profile                 : High@L3.2
Format settings, CABAC         : Yes
Format settings, ReFrames      : 5 frames
Codec ID                       : avc1
Codec ID/Info                  : Advanced Video Coding
Duration                       : 1 h 26 min
Bit rate                       : 6 759 kb/s
Width                          : 1 280 pixels
Height                         : 704 pixels
Display aspect ratio           : 16:9
Frame rate mode                : Variable
Frame rate                     : 59.940 (60000/1001) FPS
Minimum frame rate             : 59.920 FPS
Maximum frame rate             : 59.960 FPS
Color space                    : YUV
Chroma subsampling             : 4:2:0
Bit depth                      : 8 bits
Scan type                      : Progressive
Bits/(Pixel*Frame)             : 0.125
Stream size                    : 4.10 GiB (99%)
Writing library                : x264 core 148 r2708 86b7198
Encoding settings              : cabac=1 / ref=5 / deblock=1:0:0 / analyse=0x3:0x113 / me=umh / subme=8 / psy=1 / psy_rd=1.00:0.00 / mixed_ref=1 / me_range=16 / chroma_me=1 / trellis=1 / 8x8dct=1 / cqm=0 / deadzone=21,11 / fast_pskip=1 / chroma_qp_offset=-2 / threads=12 / lookahead_threads=2 / sliced_threads=0 / nr=0 / decimate=1 / interlaced=0 / bluray_compat=0 / constrained_intra=0 / bframes=3 / b_pyramid=2 / b_adapt=2 / b_bias=0 / direct=3 / weightb=1 / open_gop=0 / weightp=2 / keyint=600 / keyint_min=60 / scenecut=40 / intra_refresh=0 / rc_lookahead=50 / rc=crf / mbtree=1 / crf=20.0 / qcomp=0.60 / qpmin=0 / qpmax=69 / qpstep=4 / ip_ratio=1.40 / aq=1:1.00
Encoded date                   : UTC 2017-01-07 20:59:43
Tagged date                    : UTC 2017-01-07 20:59:43
Color range                    : Limited
Color primaries                : BT.709
Transfer characteristics       : BT.709
Matrix coefficients            : BT.709

Audio
ID                             : 2
Format                         : AAC
Format/Info                    : Advanced Audio Codec
Format profile                 : LC
Codec ID                       : 40
Duration                       : 1 h 26 min
Bit rate mode                  : Variable
Bit rate                       : 64.2 kb/s
Channel(s)                     : 2 channels
Channel(s)_Original            : 1 channel
Channel positions              : Front: C
Sampling rate                  : 48.0 kHz
Frame rate                     : 46.875 FPS (1024 spf)
Compression mode               : Lossy
Stream size                    : 39.9 MiB (1%)
Title                          : Mono / Mono
Default                        : Yes
Alternate group                : 1
Encoded date                   : UTC 2017-01-07 20:59:43
Tagged date                    : UTC 2017-01-07 20:59:43


This is true HD, way better than my copy!
View user's profileSend private message
Thor was here
Working on my Vid Collection
Working on my Vid Collection


Joined: 03 Jun 2016
Posts: 67



PostPosted: Thu Jan 12, 2017 8:29 pm Reply with quoteBack to top

JoeBob wrote:
JoeBob wrote:

I think it is but I'll let you make that decision.  Once it's uploaded I'll send a link but looks like it'll be tomorrow.


Here ya go.  I did run this trough handbrake and no longer have original.  Do this with everything I capture.   https://mega.nz/#!UsAz2B4J!dacD3JvG_rNpulcucwFPIwugUPFoPHRYhIJXoBGtx9U

Code:

General
Format                         : MPEG-4
Format profile                 : Base Media / Version 2
Codec ID                       : mp42 (isom/iso2/avc1/mp41)
File size                      : 4.15 GiB
Duration                       : 1 h 26 min
Overall bit rate mode          : Variable
Overall bit rate               : 6 841 kb/s
Encoded date                   : UTC 2017-01-07 20:59:43
Tagged date                    : UTC 2017-01-07 20:59:43
Writing application            : HandBrake 1.0.0 2016122400

Video
ID                             : 1
Format                         : AVC
Format/Info                    : Advanced Video Codec
Format profile                 : High@L3.2
Format settings, CABAC         : Yes
Format settings, ReFrames      : 5 frames
Codec ID                       : avc1
Codec ID/Info                  : Advanced Video Coding
Duration                       : 1 h 26 min
Bit rate                       : 6 759 kb/s
Width                          : 1 280 pixels
Height                         : 704 pixels
Display aspect ratio           : 16:9
Frame rate mode                : Variable
Frame rate                     : 59.940 (60000/1001) FPS
Minimum frame rate             : 59.920 FPS
Maximum frame rate             : 59.960 FPS
Color space                    : YUV
Chroma subsampling             : 4:2:0
Bit depth                      : 8 bits
Scan type                      : Progressive
Bits/(Pixel*Frame)             : 0.125
Stream size                    : 4.10 GiB (99%)
Writing library                : x264 core 148 r2708 86b7198
Encoding settings              : cabac=1 / ref=5 / deblock=1:0:0 / analyse=0x3:0x113 / me=umh / subme=8 / psy=1 / psy_rd=1.00:0.00 / mixed_ref=1 / me_range=16 / chroma_me=1 / trellis=1 / 8x8dct=1 / cqm=0 / deadzone=21,11 / fast_pskip=1 / chroma_qp_offset=-2 / threads=12 / lookahead_threads=2 / sliced_threads=0 / nr=0 / decimate=1 / interlaced=0 / bluray_compat=0 / constrained_intra=0 / bframes=3 / b_pyramid=2 / b_adapt=2 / b_bias=0 / direct=3 / weightb=1 / open_gop=0 / weightp=2 / keyint=600 / keyint_min=60 / scenecut=40 / intra_refresh=0 / rc_lookahead=50 / rc=crf / mbtree=1 / crf=20.0 / qcomp=0.60 / qpmin=0 / qpmax=69 / qpstep=4 / ip_ratio=1.40 / aq=1:1.00
Encoded date                   : UTC 2017-01-07 20:59:43
Tagged date                    : UTC 2017-01-07 20:59:43
Color range                    : Limited
Color primaries                : BT.709
Transfer characteristics       : BT.709
Matrix coefficients            : BT.709

Audio
ID                             : 2
Format                         : AAC
Format/Info                    : Advanced Audio Codec
Format profile                 : LC
Codec ID                       : 40
Duration                       : 1 h 26 min
Bit rate mode                  : Variable
Bit rate                       : 64.2 kb/s
Channel(s)                     : 2 channels
Channel(s)_Original            : 1 channel
Channel positions              : Front: C
Sampling rate                  : 48.0 kHz
Frame rate                     : 46.875 FPS (1024 spf)
Compression mode               : Lossy
Stream size                    : 39.9 MiB (1%)
Title                          : Mono / Mono
Default                        : Yes
Alternate group                : 1
Encoded date                   : UTC 2017-01-07 20:59:43
Tagged date                    : UTC 2017-01-07 20:59:43


this is awesome, thanks!
View user's profileSend private message
GymFanatic
Just here for the Vids!
Just here for the Vids!


Joined: 10 Oct 2016
Posts: 14



PostPosted: Thu Jan 12, 2017 8:52 pm Reply with quoteBack to top

JoeBob wrote:
JoeBob wrote:

I think it is but I'll let you make that decision.  Once it's uploaded I'll send a link but looks like it'll be tomorrow.


Here ya go.  I did run this trough handbrake and no longer have original.  Do this with everything I capture.   https://mega.nz/#!UsAz2B4J!dacD3JvG_rNpulcucwFPIwugUPFoPHRYhIJXoBGtx9U

Code:

General
Format                         : MPEG-4
Format profile                 : Base Media / Version 2
Codec ID                       : mp42 (isom/iso2/avc1/mp41)
File size                      : 4.15 GiB
Duration                       : 1 h 26 min
Overall bit rate mode          : Variable
Overall bit rate               : 6 841 kb/s
Encoded date                   : UTC 2017-01-07 20:59:43
Tagged date                    : UTC 2017-01-07 20:59:43
Writing application            : HandBrake 1.0.0 2016122400

Video
ID                             : 1
Format                         : AVC
Format/Info                    : Advanced Video Codec
Format profile                 : High@L3.2
Format settings, CABAC         : Yes
Format settings, ReFrames      : 5 frames
Codec ID                       : avc1
Codec ID/Info                  : Advanced Video Coding
Duration                       : 1 h 26 min
Bit rate                       : 6 759 kb/s
Width                          : 1 280 pixels
Height                         : 704 pixels
Display aspect ratio           : 16:9
Frame rate mode                : Variable
Frame rate                     : 59.940 (60000/1001) FPS
Minimum frame rate             : 59.920 FPS
Maximum frame rate             : 59.960 FPS
Color space                    : YUV
Chroma subsampling             : 4:2:0
Bit depth                      : 8 bits
Scan type                      : Progressive
Bits/(Pixel*Frame)             : 0.125
Stream size                    : 4.10 GiB (99%)
Writing library                : x264 core 148 r2708 86b7198
Encoding settings              : cabac=1 / ref=5 / deblock=1:0:0 / analyse=0x3:0x113 / me=umh / subme=8 / psy=1 / psy_rd=1.00:0.00 / mixed_ref=1 / me_range=16 / chroma_me=1 / trellis=1 / 8x8dct=1 / cqm=0 / deadzone=21,11 / fast_pskip=1 / chroma_qp_offset=-2 / threads=12 / lookahead_threads=2 / sliced_threads=0 / nr=0 / decimate=1 / interlaced=0 / bluray_compat=0 / constrained_intra=0 / bframes=3 / b_pyramid=2 / b_adapt=2 / b_bias=0 / direct=3 / weightb=1 / open_gop=0 / weightp=2 / keyint=600 / keyint_min=60 / scenecut=40 / intra_refresh=0 / rc_lookahead=50 / rc=crf / mbtree=1 / crf=20.0 / qcomp=0.60 / qpmin=0 / qpmax=69 / qpstep=4 / ip_ratio=1.40 / aq=1:1.00
Encoded date                   : UTC 2017-01-07 20:59:43
Tagged date                    : UTC 2017-01-07 20:59:43
Color range                    : Limited
Color primaries                : BT.709
Transfer characteristics       : BT.709
Matrix coefficients            : BT.709

Audio
ID                             : 2
Format                         : AAC
Format/Info                    : Advanced Audio Codec
Format profile                 : LC
Codec ID                       : 40
Duration                       : 1 h 26 min
Bit rate mode                  : Variable
Bit rate                       : 64.2 kb/s
Channel(s)                     : 2 channels
Channel(s)_Original            : 1 channel
Channel positions              : Front: C
Sampling rate                  : 48.0 kHz
Frame rate                     : 46.875 FPS (1024 spf)
Compression mode               : Lossy
Stream size                    : 39.9 MiB (1%)
Title                          : Mono / Mono
Default                        : Yes
Alternate group                : 1
Encoded date                   : UTC 2017-01-07 20:59:43
Tagged date                    : UTC 2017-01-07 20:59:43

Looks great! Keep it up!
View user's profileSend private messageVisit poster's website
RockTheGym
Just here for the Vids!
Just here for the Vids!


Joined: 19 Mar 2016
Posts: 8



PostPosted: Sun Jan 15, 2017 3:01 pm Reply with quoteBack to top

CGA wrote:
Final tutorial (everything else is pretty self-explanatory, IDM just eats up every other site's stuff no problem) - BTN as of last season was just working straight up with youtube-dl, as I recall. I don't remember if there was a little trick to it or not, as far as the URL - ie, don't remember if you could just paste the browser URL and youtube-dl would find the source from it, or if you had to give them a source URL. But i'll revisit when/if they start posting free vids again this year. Also, haven't checked in a bit, but in a positive development, all of last year's BTN vids remained on the site even after this school year began. Would be a welcome change, their habit of just deleting everything every year is a crime.


I've tried to download BTN meets with Youtube-dl but have not been able to get it to work. Nothing else seems to work either... I've resorted to screen capping which generates enormous files. Sad
View user's profileSend private message
6CA7
Just here for the Vids!
Just here for the Vids!


Joined: 05 Feb 2017
Posts: 6



PostPosted: Tue Feb 28, 2017 10:55 pm Reply with quoteBack to top

Working on soaking everything in here. So after reading through this thread a few times and downloading IDM I tried downloading a small video to start with (2m 40sec) and IDM produced 37 .ts files. I downloaded a few other of the programs mentioned here as well.

I am able to open the first .ts file in VLC and it looks sharp. Do I still need to combine all of those .ts files into one?
View user's profileSend private message
vinace
Just here for the Vids!
Just here for the Vids!


Joined: 26 Mar 2016
Posts: 8



PostPosted: Wed Mar 01, 2017 12:32 am Reply with quoteBack to top

IDM should combine all the files together for you as long as everything is working properly.
View user's profileSend private message
6CA7
Just here for the Vids!
Just here for the Vids!


Joined: 05 Feb 2017
Posts: 6



PostPosted: Wed Mar 01, 2017 12:55 am Reply with quoteBack to top

Ok,Thank you - I'll revisit it. Maybe there is something in IDM I have not setup right...or it's user error  Very Happy

View user's profileSend private message
Display posts from previous:      
Post new topicReply to topic


 Jump to:   



View next topic
View previous topic
You cannot post new topics in this forum
You cannot reply to topics in this forum
You cannot edit your posts in this forum
You cannot delete your posts in this forum
You cannot vote in polls in this forum

Card File  Gallery  Forum Archive
Powered by phpBB © 2001, 2002 phpBB Group :: FI Theme :: All times are GMT - 5 Hours
Create your own free forum | Buy a domain to use with your forum