Archive for gymmultimedia.myfastforum.org Gymnastics Videos to share
 


       gymmultimedia.myfastforum.org Forum Index -> NCAA Competition 2017
JoeBob

San Jose State at Sacramento State

Looks like whoever created this at the meet decided to overlay a web browser for the first few minutes.

https://mega.nz/#!IhxBjQrA!AG8T3T0znbV4cw3YTF-dk_CyQaBOdiKueAvOtbL_qhw

Code:
General
Format                         : MPEG-4
Format profile                 : Base Media
Codec ID                       : isom (isom/iso2/avc1/mp41)
File size                      : 1.98 GiB
Duration                       : 2 h 23 min
Overall bit rate               : 1 980 kb/s
Writing application            : Lavf56.40.101

Video
ID                             : 1
Format                         : AVC
Format/Info                    : Advanced Video Codec
Format profile                 : High@L3.1
Format settings, CABAC         : Yes
Format settings, ReFrames      : 4 frames
Codec ID                       : avc1
Codec ID/Info                  : Advanced Video Coding
Duration                       : 2 h 23 min
Bit rate                       : 1 894 kb/s
Nominal bit rate               : 2 200 kb/s
Width                          : 1 280 pixels
Height                         : 720 pixels
Display aspect ratio           : 16:9
Frame rate mode                : Variable
Frame rate                     : 29.970 FPS
Minimum frame rate             : 29.412 FPS
Maximum frame rate             : 30.303 FPS
Color space                    : YUV
Chroma subsampling             : 4:2:0
Bit depth                      : 8 bits
Scan type                      : Progressive
Bits/(Pixel*Frame)             : 0.069
Stream size                    : 1.89 GiB (96%)
Writing library                : x264 core 136 r63M 8fcf9de
Encoding settings              : cabac=1 / ref=3 / deblock=1:0:0 / analyse=0x3:0x113 / me=hex / subme=7 / psy=1 / psy_rd=1.00:0.00 / mixed_ref=1 / me_range=16 / chroma_me=1 / trellis=1 / 8x8dct=1 / cqm=0 / deadzone=21,11 / fast_pskip=1 / chroma_qp_offset=-2 / threads=24 / lookahead_threads=4 / sliced_threads=0 / nr=0 / decimate=1 / interlaced=0 / bluray_compat=0 / constrained_intra=0 / bframes=3 / b_pyramid=2 / b_adapt=1 / b_bias=0 / direct=1 / weightb=1 / open_gop=0 / weightp=2 / keyint=149 / keyint_min=14 / scenecut=0 / intra_refresh=0 / rc_lookahead=40 / rc=cbr / mbtree=1 / bitrate=2200 / ratetol=1.0 / qcomp=0.60 / qpmin=0 / qpmax=69 / qpstep=4 / vbv_maxrate=2200 / vbv_bufsize=4400 / nal_hrd=none / ip_ratio=1.40 / aq=1:1.00

Audio
ID                             : 2
Format                         : AAC
Format/Info                    : Advanced Audio Codec
Format profile                 : LC
Codec ID                       : 40
Duration                       : 2 h 23 min
Bit rate mode                  : Constant
Bit rate                       : 76.0 kb/s
Channel(s)                     : 2 channels
Channel(s)_Original            : 1 channel
Channel positions              : Front: C
Sampling rate                  : 44.1 kHz
Frame rate                     : 43.066 FPS (1024 spf)
Compression mode               : Lossy
Stream size                    : 77.8 MiB (4%)
Default                        : Yes
Alternate group                : 1
chocdave

Thanks for these, JoeBob.
GymFanatic

Thanks for the meet, Joe! At least the overlay occurred during the warm-ups.

       gymmultimedia.myfastforum.org Forum Index -> NCAA Competition 2017
Page 1 of 1
Create your own free forum | Buy a domain to use with your forum